BlacKkKlansman 2018 Movies 720p BluRay x264 5.1 with Sample ☻rDX☻...

seeders: 10
leechers: 6
updated:
Added by nehalpuja in Other


[ LIMITED VPN OFFER ]
strongly advises you to use NordVPN while downloading torrents.
NordVPN is the safest VPN on the market, and the fastest VPN as well.
No IP Log is saved using NordVPN, avoid other VPN providers and choose the safest one.
Click here and buy NordVPN it's on rebates today!
We were able to verify your IP: 146.185.203.248, country: Russian Federation and you are near by: Saint Petersburg.
If we can do that, others can too, protect your privacy with NordVPN.
is trying the best for you!
[ LIMITED VPN OFFER ]


Description

BlacKkKlansman 2018 Movies 720p BluRay x264 5.1 with Sample ☻rDX☻
===============================================================================================

SCREEN SHOTS:  

 

or

http://iphonehosting.eu/2018/11/computer/1.html  

File size : 976 MiB
Duration : 2 h 14 min
Overall bit rate : 1 012 kb/s
Movie name : BlacKkKlansman 2018 Movies 720p BluRay x264 5.1 ☻rDX☻

Video
ID : 2
Format : AVC
Format/Info : Advanced Video Codec
Format profile : [email protected] 
Format settings, CABAC : Yes
Format settings, ReFrames : 4 frames
Codec ID : V_MPEG4/ISO/AVC
Duration : 2 h 14 min
Bit rate : 800 kb/s
Width : 1 280 pixels
Height : 720 pixels
Display aspect ratio : 2.40:1
Frame rate mode : Constant
Frame rate : 23.976 (24000/1001) FPS
Color space : YUV
Chroma subsampling : 4:2:0
Bit depth : 8 bits
Scan type : Progressive
Bits/(Pixel*Frame) : 0.036
Stream size : 772 MiB (79%)
Title : ☻rDX☻
Writing library : x264

Audio
ID : 1
Format : AC-3
Format/Info : Audio Coding 3
Mode extension : CM (complete main)
Format settings, Endianness : Big
Codec ID : A_AC3
Duration : 2 h 14 min
Bit rate mode : Constant
Bit rate : 192 kb/s
Channel(s) : 6 channels
Channel positions : Front: L C R, Side: L R, LFE
Sampling rate : 44.1 kHz
Frame rate : 28.711 FPS (1536 spf)
Bit depth : 16 bits
Compression mode : Lossy
Delay relative to video : -21 ms
Stream size : 185 MiB (19%)
Title : ☻rDX☻
Default : Yes
Forced : No

http://www.imdb.com/title/tt7349662


Sharing Widget


Download torrent
Size: 985.8 MB
seeders:10
leechers:6
BlacKkKlansman 2018 Movies 720p BluRay x264 5.1 with Sample ☻rDX☻... - (1033686220 Bytes)



To share this torrent use the code below and insert it into comments, status messages, forum posts or your signature.

Torrent: BlacKkKlansman 2018 Movies 720p BluRay x264 5.1 with Sample ☻rDX☻...

Trackers

tracker name
udp://tracker.coppersurfer.tk:6969/announce
udp://tracker.leechers-paradise.org:6969/announce
udp://tracker.pirateparty.gr:6969/announce
udp://eddie4.nl:6969/announce
udp://tracker.zer0day.to:1337/announce
udp://9.rarbg.me:2710/announce
udp://9.rarbg.to:2710/announce
udp://public.popcorn-tracker.org:6969/announce
udp://p4p.arenabg.ch:1337/announce
udp://tracker.vanitycore.co:6969/announce
udp://ipv4.tracker.harry.lu:80/announce
udp://tracker.opentrackr.org:1337/announce
udp://p4p.arenabg.com:1337/announce
udp://shadowshq.yi.org:6969/announce
udp://tracker.zer0day.to:1337/announce
udp://tracker.leechers-paradise.org:6969/announce
udp://coppersurfer.tk:6969/announce
µTorrent compatible trackers list

Locations

name
KickassTorrents
Torrent hash: 807D0E8EA2FADBBB9A5C03F58A8838E5C321D9C1

[ LIMITED VPN OFFER ]
strongly advises you to use NordVPN while downloading torrents.
NordVPN is the safest VPN on the market, and the fastest VPN as well.
No IP Log is saved using NordVPN, avoid other VPN providers and choose the safest one.
Click here and buy NordVPN it's on rebates today!
We were able to verify your IP: 146.185.203.248, country: Russian Federation and you are near by: Saint Petersburg.
If we can do that, others can too, protect your privacy with NordVPN.
is trying the best for you!
[ LIMITED VPN OFFER ]


All Comments

*comments box temporarily disabled*
Report a bug